Muscle Contraction | Nittaya Pohcha | You Get What You Need
Quick Browse
Movies
TV shows
Music
Games
Applications
Anime
Other

Latest Articles

Friends
RARBG
Torrents.me
Torrent Download
Movie4u
1337x
Torrent Downloads

LimeTorrents

Verified torrent 18+ (2017) 720p HDRip x264 AAC by Full4movies


    Seeders : 106      Leechers : 35

Hash :ED180327069C4EEDC585ADF87D7CC4A876CD29A0
Added :4 days ago by India4movieVerified torrent uploader in Movies
Size :896.24 MB
Stream :Watch Online Full Movie @ Movie4u
Share :


18+ (2017) 720p HDRip x264 AAC by Full4movies
Download Direct And Anonymously








Note :

Please Update (Trackers Info) Before Downloading Torrents to See Updated Seeders And Leechers for Batter Download Speed.

Trackers List

Tracker NameLast CheckStatusSeedersLeechers
udp://tracker.tiny-vps.com:6969/announce2 hours agosuccess10622
udp://tracker.coppersurfer.tk:6969/announce2 hours agosuccess10435
udp://tracker.pirateparty.gr:6969/announce2 hours agosuccess10435
udp://tracker.opentrackr.org:1337/announce2 hours agosuccess9928
udp://public.popcorn-tracker.org:6969/announce2 hours agosuccess8720
udp://tracker.internetwarriors.net:1337/announce2 hours agosuccess61
udp://tracker.vanitycore.co:6969/announce2 hours agosuccess50
http://tracker.trackerfix.com/announce2 hours agosuccess00
http://tracker2.wasabii.com.tw:6969/announce2 hours agosuccess00




Torrent File Content (1 file)


     (2017) 720p HDRip x264 AAC by Full4movies.mkv -
896.24 MB



Description



http://extraimage.net/images/2018/07/12/4b8f742da56d03de610cd8e108c5e3b4.jpg


General
Complete name : (2017) 720p HDRip x264 AAC by Full4movies.mkv
Format : Matroska
Format version : Version 4 / Version 2
File size : 896 MiB
Duration : 1 h 30 min
Overall bit rate : 1 385 kb/s
Movie name : www.Full4movies.co
Encoded date : UTC 2018-07-11 15:33:26
Writing application : mkvmerge v8.1.0 ('Psychedelic Postcard') 32bit
Writing library : libebml v1.3.1 + libmatroska v1.4.2

Video
ID : 1
Format : AVC
Format/Info : Advanced Video Codec
Format profile : [email protected]
Format settings, CABAC : Yes
Format settings, RefFrames : 5 frames
Codec ID : V_MPEG4/ISO/AVC
Duration : 1 h 30 min
Bit rate : 1 280 kb/s
Width : 1 280 pixels
Height : 720 pixels
Display aspect ratio : 16:9
Frame rate mode : Constant
Frame rate : 23.976 (23976/1000) FPS
Color space : YUV
Chroma subsampling : 4:2:0
Bit depth : 8 bits
Scan type : Progressive
Bits/(Pixel*Frame) : 0.058
Stream size : 811 MiB (90%)
Writing library : x264 core 148 r2643 5c65704
Default : Yes
Forced : No

Audio
ID : 2
Format : AAC
Format/Info : Advanced Audio Codec
Format profile : LC
Codec ID : A_AAC
Duration : 1 h 30 min
Bit rate : 132 kb/s
Channel(s) : 2 channels
Channel positions : Front: L R
Sampling rate : 48.0 kHz
Frame rate : 46.875 FPS (1024 SPF)
Compression mode : Lossy
Delay relative to video : -21 ms
Stream size : 84.1 MiB (9%)
Language : English
Default : Yes
Forced : No

Screen Shoots
http://extraimage.net/images/2018/07/12/37eeabb65e566ff690b4c50acecae30d.jpg

Related torrents

Torrent NameAddedSizeSeedLeechHealth
Verified torrent
23 days ago - in Movies901.29 MB00
2 months ago - in Movies481.77 MB00
5 days ago - in Movies744 MB144
Verified torrent
10 days ago - in Movies689.04 MB30
Verified torrent
11 days ago - in Movies653.97 MB62

Note :

Feel free to post any comments about this torrent, including links to Subtitle, samples, screenshots, or any other relevant information. Please Dont Download anything from Comments, And Dont Post Links to Streaming Sites like Fmovies, Xmovies8, 123Movies, GoMovies, CMovieshd, Solarmovie, Watchfree, Putlockers, GoStream, m4ufree etc.

Comments (0 Comments)




Please login or create a FREE account to post comments

Latest Searches

| Os Caras de Pau 2014 | Sticky Fingaz black trash the autobiography of Kirk Jones | The stretch marks | bootstrap e book | jarec men | john snt | lie like me | hiphop reggae rnb | marie phoenix naughty | wwe raw 14 4 | iSkysoft iMedia Converter Deluxe 10 2 6 | baron de munchhausen | creampie teen black | PfMENTUM | 2003 mercedes c |