In The Dark | Ten Days In The Valley | Mindhunter
Quick Browse
Movies
TV shows
Music
Games
Applications
Anime
Other

Latest Articles

Friends
Torrents.me
Torrent Download
Movie4u
1337x
RARBG
Full Movies
Torrent Downloads

Laavaan Phere 2018 x264 720p HD 5 1 Punjabi GOPISAHI


    Seeders : 17      Leechers : 10

Hash :141A6F87694A284440CDACBE6706D21108BBAB9D
Added :2 days ago in Movies - Movies
Size :664.66 MB
Stream :Watch Online Full Movie @ Movie4u
Share :









Note :

Please Update (Trackers Info) Before Downloading Torrents to See Updated Seeders And Leechers for Batter Download Speed.

Trackers List

Tracker NameLast CheckStatusSeedersLeechers
udp://tracker.opentrackr.org:1337/announce7 hours agosuccess1710
udp://tracker.leechers-paradise.org:6969/announce7 hours agosuccess106
udp://inferno.demonoid.pw:3418/announce7 hours agosuccess106
udp://inferno.demonoid.pw:3391/announce7 hours agosuccess106
udp://shadowshq.yi.org:6969/announce7 hours agosuccess106
udp://eddie4.nl:6969/announce7 hours agosuccess106
udp://public.popcorn-tracker.org:6969/announce7 hours agosuccess96
udp://tracker.tiny-vps.com:6969/announce7 hours agosuccess86
udp://9.rarbg.to:2800/announce7 hours agosuccess86
udp://9.rarbg.com:2740/announce7 hours agosuccess86
udp://9.rarbg.me:2710/announce7 hours agosuccess86
udp://9.rarbg.to:2710/announce7 hours agosuccess86
udp://tracker.coppersurfer.tk:6969/announce7 hours agosuccess76
udp://tracker.coppersurfer.tk:80/announce7 hours agosuccess76
udp://tracker.pirateparty.gr:6969/announce7 hours agosuccess76
http://tracker2.wasabii.com.tw:6969/announce7 hours agosuccess00
http://tracker.trackerfix.com/announce7 hours agosuccess00
udp://tracker.xku.tv:6969/announce7 hours agosuccess00
udp://asnet.pw:2710/announce7 hours agosuccess00
udp://tracker.cypherpunks.ru:6969/announce7 hours agosuccess00
http://bigfoot1942.sektori.org:6969/announce7 hours agosuccess00
udp://castradio.net:6969/announce7 hours agosuccess00
udp://explodie.org:6969/announce7 hours agosuccess00
udp://tracker.vanitycore.co:6969/announce7 hours agosuccess00
udp://tracker.zer0day.to:1337/announce7 hours agosuccess00
udp://tracker.blackunicorn.xyz:6969/announce7 hours agosuccess00
http://tracker.opentrackr.org/announce7 hours agosuccess00
udp://tracker.mgtracker.org:2710/announce7 hours agosuccess00
udp://mgtracker.org:6969/announce7 hours agosuccess00
udp://tracker.torrent.eu.org:451/announce7 hours agosuccess00
udp://tracker.sktorrent.net:6969/announce7 hours agosuccess00
udp://tracker.trackerfix.com:80/announce7 hours agosuccess00
udp://glotorrents.pw:6969/announce7 hours agosuccess00
udp://p4p.arenabg.com:1337/announce7 hours agosuccess00
udp://p4p.arenabg.ch:1337/announce7 hours agosuccess00




Torrent File Content (1 file)


     Laavaan Phere 2018 x264 720p HD 5.1 Punjabi GOPISAHI.mkv -
664.66 MB



Description



Movies : Comedy : HD 720p : Hindi

http://www.gopisahi.pw/
Format : Matroska
Format version : Version 4 / Version 2
File size : 665 MiB
Duration : 2 h 3 min
Overall bit rate : 752 kb/s
Movie name : Laavaan Phere 2018 GOPISAHI

Video
Format : AVC
Codec ID : V_MPEG4/ISO/AVC
Duration : 2 h 3 min
Bit rate : 600 kb/s
Width : 1 280 pixels
Height : 664 pixels
Display aspect ratio : 1.928
Frame rate mode : Constant
Frame rate : 25.000 FPS
Color space : YUV
Chroma subsampling : 4:2:0
Bit depth : 8 bits
Scan type : Progressive
Bits/(Pixel*Frame) : 0.028
Stream size : 530 MiB (80%)
Title : GOPISAHI
Writing library : x264 core 155 r2893 b00bcaf

Audio
Format : AAC
Duration : 2 h 3 min
Bit rate : 150 kb/s
Channel(s) : 2 channels
Channel positions : Front: L R
Sampling rate : 44.1 kHz
Frame rate : 43.066 FPS (1024 SPF)
Compression mode : Lossy
Stream size : 132 MiB (20%)
Title : GOPISAHI
Language : Panjabi



Related torrents

Torrent NameAddedSizeSeedLeechHealth
15 days ago - in Movies542.74 MB00
4 days ago - in Movies641.73 MB00
4 days ago - in Movies487.29 MB00
Verified torrent
4 days ago - in Movies970.76 MB00
Verified torrent
7 months ago - in Movies491.4 MB174

Note :

Feel free to post any comments about this torrent, including links to Subtitle, samples, screenshots, or any other relevant information. Please Dont Download anything from Comments, And Dont Post Links to Streaming Sites like Fmovies, Xmovies8, 123Movies, GoMovies, CMovieshd, Solarmovie, Watchfree, Putlockers, GoStream, m4ufree etc.

Comments (0 Comments)




Please login or create a FREE account to post comments

Latest Searches

| love letters jamie Lee curtis | o mss | private alessandra | White black 2011 | rap hip hop rnb video | mompov thick blonde swinger milf | your pony | prometheus dts hd | B A R Maid comic | 111 17 17 |