The Real Thing | Power Rangers Ninja Storm | Jeremy Shada
Quick Browse
Movies
TV shows
Music
Games
Applications
Anime
Other

Latest Articles

Friends
Torrents.me
Torrent Download
Movie4u
1337x
RARBG
Full Movies
Torrent Downloads

Verified torrent Naam Shabana (2017) 720p Hindi HDRip x264 AAC by Full4movies


    Seeders : 1      Leechers : 0

Hash :6BB75E648D252A0E5763A5F6CAE0E72623E00A9C
Added :6 days ago by India4movieVerified torrent uploader in Movies
Size :948.81 MB
Stream :Watch Online Full Movie @ Movie4u
Share :









Note :

Please Update (Trackers Info) Before Downloading Torrents to See Updated Seeders And Leechers for Batter Download Speed.

Trackers List

Tracker NameLast CheckStatusSeedersLeechers
http://public.popcorn-tracker.org:6969/announce6 days agosuccess10




Torrent File Content (1 file)


     Naam Shabana (2017) 720p Hindi HDRip x264 AAC by Full4movies.mkv -
948.81 MB



Description



http://m.media-amazon.com/images/M/MV5BMTkxMDk1Mjc2NF5BMl5BanBnXkFtZTgwNjk4Njk3MTI@._V1_SY1000_SX750_AL_.jpg


General
Complete name : Naam Shabana (2017) 720p Hindi HDRip x264 AAC by Full4movies.mkv
Format : Matroska
Format version : Version 4 / Version 2
File size : 949 MiB
Duration : 2 h 21 min
Overall bit rate : 937 kb/s
Movie name : www.Full4movies.co
Encoded date : UTC 2018-06-14 16:38:15
Writing application : mkvmerge v8.1.0 ('Psychedelic Postcard') 32bit
Writing library : libebml v1.3.1 + libmatroska v1.4.2

Video
ID : 1
Format : AVC
Format/Info : Advanced Video Codec
Format profile : [email protected]
Format settings, CABAC : Yes
Format settings, RefFrames : 4 frames
Codec ID : V_MPEG4/ISO/AVC
Duration : 2 h 21 min
Bit rate : 776 kb/s
Width : 1 280 pixels
Height : 536 pixels
Display aspect ratio : 2.40:1
Frame rate mode : Constant
Frame rate : 25.000 FPS
Color space : YUV
Chroma subsampling : 4:2:0
Bit depth : 8 bits
Scan type : Progressive
Bits/(Pixel*Frame) : 0.045
Stream size : 785 MiB (83%)
Writing library : x264 core 148 r2708 86b7198
Language : Hindi
Default : Yes
Forced : No
Color range : Limited
Color primaries : BT.709
Transfer characteristics : BT.709
Matrix coefficients : BT.709

Audio
ID : 2
Format : AAC
Format/Info : Advanced Audio Codec
Format profile : LC
Codec ID : A_AAC
Duration : 2 h 21 min
Bit rate : 159 kb/s
Channel(s) : 2 channels
Channel positions : Front: L R
Sampling rate : 48.0 kHz
Frame rate : 46.875 FPS (1024 SPF)
Compression mode : Lossy
Delay relative to video : -21 ms
Stream size : 161 MiB (17%)
Language : Hindi
Default : Yes
Forced : No

Screen Shoots
http://extraimage.net/images/2018/06/14/2c1f4c4dbd1272da0d4fabaf7004ee68.jpg

Related torrents

Torrent NameAddedSizeSeedLeechHealth
Verified torrent
16 days ago - in Movies943.06 MB10
Verified torrent
29 days ago - in Movies1.5 GB00
Verified torrent
6 days ago - in Movies1.11 GB10
Verified torrent
Last Month - in Movies1012.29 MB00
Last Month - in Movies411.02 MB00
Last Month - in Movies800.43 MB00

Note :

Feel free to post any comments about this torrent, including links to Subtitle, samples, screenshots, or any other relevant information. Please Dont Download anything from Comments, And Dont Post Links to Streaming Sites like Fmovies, Xmovies8, 123Movies, GoMovies, CMovieshd, Solarmovie, Watchfree, Putlockers, GoStream, m4ufree etc.

Comments (0 Comments)




Please login or create a FREE account to post comments

Latest Searches

| One Taste Is All | hard ed | Junior Mafia Get Money | moms bang s reality kings 1 | Merlyn Jock the Bells | The Sassy Slut | Charles Aznavour 40 Chansons D | xxx 2 woman 1 man | Skinny thai | pauline2010 |