CODE BLACK S1E11.srt | Code.Black.S01E11.720p.HDTV.X264-DIMENSION.srt | Code.Black.1x11.HDTV.Xvid.Mp3.[4].[SBT].srt
Quick Browse
Movies
TV shows
Music
Games
Applications
Anime
Other

Latest Articles

Friends
Torrents.me
Torrent Download
Movie4u
1337x
RARBG
Full Movies
Torrent Downloads

Verified torrent Rum (2018) 720p Hindi Dubbed (Audio Cleaned) HDRip x264 AAC +ESubs by Full4movies


    Seeders : 1      Leechers : 1


Note :

Please Update (Trackers Info) Before Downloading Torrents to See Updated Seeders And Leechers for Batter Download Speed.

Trackers List

Tracker NameLast CheckStatusSeedersLeechers
http://9.rarbg.to:2780/announceYesterdaysuccess11
http://public.popcorn-tracker.org:6969/announceYesterdaysuccess11




Torrent File Content (1 file)


     Rum (2018) 720p Hindi Dubbed (Audio Cleaned) HDRip x264 AAC +ESubs by Full4movies.mkv -
1.31 GB



Description



http://pbs.twimg.com/media/Cs9qv59UEAAq0sN.jpg


General
Complete name : Rum (2018) 720p Hindi Dubbed (Audio Cleaned) HDRip x264 AAC +ESubs by Full4movies.mkv
Format : Matroska
Format version : Version 4 / Version 2
File size : 1.31 GiB
Duration : 2 h 10 min
Overall bit rate : 1 443 kb/s
Movie name : www.Full4movies.co
Encoded date : UTC 2018-06-14 12:11:13
Writing application : mkvmerge v8.1.0 ('Psychedelic Postcard') 32bit
Writing library : libebml v1.3.1 + libmatroska v1.4.2

Video
ID : 1
Format : AVC
Format/Info : Advanced Video Codec
Format profile : [email protected]
Format settings, CABAC : Yes
Format settings, RefFrames : 5 frames
Codec ID : V_MPEG4/ISO/AVC
Duration : 2 h 10 min
Bit rate : 1 280 kb/s
Width : 1 280 pixels
Height : 720 pixels
Display aspect ratio : 16:9
Frame rate mode : Constant
Frame rate : 23.810 FPS
Color space : YUV
Chroma subsampling : 4:2:0
Bit depth : 8 bits
Scan type : Progressive
Bits/(Pixel*Frame) : 0.058
Stream size : 1.17 GiB (89%)
Writing library : x264 core 148 r2643 5c65704
Language : Tamil
Default : Yes
Forced : No

Audio
ID : 2
Format : AAC
Format/Info : Advanced Audio Codec
Format profile : LC
Codec ID : A_AAC
Duration : 2 h 10 min
Bit rate : 159 kb/s
Channel(s) : 2 channels
Channel positions : Front: L R
Sampling rate : 48.0 kHz
Frame rate : 46.875 FPS (1024 SPF)
Compression mode : Lossy
Stream size : 148 MiB (11%)
Language : Hindi
Default : Yes
Forced : No

Text
ID : 3
Format : ASS
Codec ID : S_TEXT/ASS
Codec ID/Info : Advanced Sub Station Alpha
Duration : 2 h 7 min
Bit rate : 80 b/s
Count of elements : 1362
Compression mode : Lossless
Stream size : 75.1 KiB (0%)
Language : English
Default : Yes
Forced : No

Screen Shoots

http://extraimage.net/images/2018/06/14/f75a1567ed65971dd025724339a3a011.jpg

Related torrents

Torrent NameAddedSizeSeedLeechHealth
Verified torrent
12 days ago - in Movies1.01 GB10
Verified torrent
13 days ago - in Movies1.02 GB11
Verified torrent
16 days ago - in Movies1.35 GB10
Last Month - in Movies1.19 GB00
Verified torrent
Last Month - in Movies1.15 GB10
Verified torrent
Last Month - in Movies1.28 GB10

Note :

Feel free to post any comments about this torrent, including links to Subtitle, samples, screenshots, or any other relevant information. Please Dont Download anything from Comments, And Dont Post Links to Streaming Sites like Fmovies, Xmovies8, 123Movies, GoMovies, CMovieshd, Solarmovie, Watchfree, Putlockers, GoStream, m4ufree etc.

Comments (0 Comments)




Please login or create a FREE account to post comments

Latest Searches

| 7 year old woman | Killergram Luna Rival The Girlfriend | goods w | serena blair casey | No Strings Attached malkova | david bowie love modern | Contagious Jonah Berger epub | Night Man 2 | sERIES 13 | how to train your dragon x0r |