[waves] Double Wish (COMIC BAVEL 2016-11) [English] [desudesu] [Digital] | Télécharger Part 5 | Télécharger Part 2
Quick Browse
Movies
TV shows
Music
Games
Applications
Anime
Other

Latest Articles

Friends
Torrents.me
Torrent Download
Movie4u
1337x
RARBG
Full Movies
Torrent Downloads

Verified torrent Traffik 2018) 720p HDCAM x264 AC3 by Full4movies


    Seeders : 13      Leechers : 3

Hash :C5DC73D5ED544D2DE4BBE8D70E0EB6C48DA0AB48
Added :24 days ago by India4movieVerified torrent uploader in Movies
Size :897.95 MB
Stream :Watch Online Full Movie @ Movie4u
Share :


Traffik 2018) 720p HDCAM x264 AC3 by Full4movies
Download Direct And Anonymously








Note :

Please Update (Trackers Info) Before Downloading Torrents to See Updated Seeders And Leechers for Batter Download Speed.

Trackers List

Tracker NameLast CheckStatusSeedersLeechers
udp://tracker.leechers-paradise.org:6969/announce8 days agosuccess130
udp://eddie4.nl:6969/announce8 days agosuccess130
udp://tracker.opentrackr.org:1337/announce8 days agosuccess73
udp://public.popcorn-tracker.org:6969/announce8 days agosuccess71
udp://tracker.coppersurfer.tk:6969/announce8 days agosuccess73
udp://tracker.pirateparty.gr:6969/announce8 days agosuccess73
udp://9.rarbg.me:2710/announce8 days agosuccess50
udp://9.rarbg.to:2710/announce8 days agosuccess50
udp://tracker.vanitycore.co:6969/announce8 days agosuccess30
http://bigfoot1942.sektori.org:6969/announce8 days agosuccess10
udp://tracker.mgtracker.org:2710/announce8 days agosuccess00
udp://mgtracker.org:6969/announce8 days agosuccess00
udp://tracker.sktorrent.net:6969/announce8 days agosuccess00
udp://tracker.x4w.co:6969/announce8 days agosuccess00
udp://tracker.internetwarriors.net:1337/announce8 days agosuccess00
http://tracker.opentrackr.org/announce8 days agosuccess00
udp://tracker.zer0day.to:1337/announce8 days agosuccess00
udp://asnet.pw:2710/announce8 days agosuccess00
udp://explodie.org:6969/announce8 days agosuccess00
udp://ipv4.tracker.harry.lu:80/announce8 days agosuccess00
http://tracker.trackerfix.com/announce8 days agosuccess00
http://announce.torrentsmd.com:6969/announce8 days agosuccess00
udp://castradio.net:6969/announce8 days agosuccess00
udp://tracker.mg64.net:6881/announce8 days agosuccess00
http://tracker2.wasabii.com.tw:6969/announce8 days agosuccess00
udp://tracker.pomf.se:80/announce8 days agosuccess00
udp://tracker.trackerfix.com:80/announce8 days agosuccess00
udp://glotorrents.pw:6969/announce8 days agosuccess00
udp://tracker4.piratux.com:6969/announce8 days agosuccess00
udp://tracker.blackunicorn.xyz:6969/announce8 days agosuccess00
udp://p4p.arenabg.ch:1337/announce8 days agosuccess00




Torrent File Content (1 file)


     Traffik 2018) 720p HDCAM x264 AC3 by Full4movies.mkv -
897.95 MB



Description



http://ia.media-imdb.com/images/M/MV5BMjIzMzc4MDAzM15BMl5BanBnXkFtZTgwMDA3NjUyNTM@._V1_SY1000_CR0,0,674,1000_AL_.jpg


General
Complete name : Traffik 2018) 720p HDCAM x264 AC3 by Full4movies.mkv
Format : Matroska
Format version : Version 4 / Version 2
File size : 898 MiB
Duration : 1 h 31 min
Overall bit rate : 1 376 kb/s
Movie name : Traffik (2018) - www.Full4movies.co
Encoded date : UTC 2018-05-13 16:21:55
Writing application : mkvmerge v8.1.0 ('Psychedelic Postcard') 32bit
Writing library : libebml v1.3.1 + libmatroska v1.4.2

Video
ID : 1
Format : AVC
Format/Info : Advanced Video Codec
Format profile : [email protected]
Format settings, CABAC : Yes
Format settings, RefFrames : 4 frames
Codec ID : V_MPEG4/ISO/AVC
Duration : 1 h 31 min
Bit rate : 990 kb/s
Width : 1 280 pixels
Height : 640 pixels
Display aspect ratio : 2.000
Frame rate mode : Constant
Frame rate : 29.970 (29970/1000) FPS
Original frame rate : 29.970 (30000/1001) FPS
Color space : YUV
Chroma subsampling : 4:2:0
Bit depth : 8 bits
Scan type : Progressive
Bits/(Pixel*Frame) : 0.040
Stream size : 646 MiB (72%)
Writing library : x264 core 155 r2901 7d0ff22
Language : English
Default : Yes
Forced : No

Audio
ID : 2
Format : AC-3
Format/Info : Audio Coding 3
Format settings, Endianness : Big
Codec ID : A_AC3
Duration : 1 h 31 min
Bit rate mode : Constant
Bit rate : 384 kb/s
Channel(s) : 2 channels
Channel positions : Front: L R
Sampling rate : 44.1 kHz
Frame rate : 28.711 FPS (1536 SPF)
Bit depth : 16 bits
Compression mode : Lossy
Stream size : 251 MiB (28%)
Language : English
Service kind : Complete Main
Default : Yes
Forced : No

Screen Shoots
http://extraimage.net/images/2018/05/14/882e1f4953e4a797b59f93764e8acaf2.jpg

Related torrents

Torrent NameAddedSizeSeedLeechHealth
Last Month - in Movies847.61 MB239
Last Month - in Movies660.97 MB38345
Verified torrent
28 days ago - in Movies790.46 MB3510
Last Month - in Movies799.02 MB20
Last Month - in Movies1.37 GB00
Last Month - in Movies1.15 GB00

Note :

Feel free to post any comments about this torrent, including links to Subtitle, samples, screenshots, or any other relevant information. Please Dont Download anything from Comments, And Dont Post Links to Streaming Sites like Fmovies, Xmovies8, 123Movies, GoMovies, CMovieshd, Solarmovie, Watchfree, Putlockers, GoStream, m4ufree etc.

Comments (0 Comments)




Please login or create a FREE account to post comments

Latest Searches

| Jinn 2014 720p Hindi 5 1 English 5 1 | povlife skinny | good wife season 7 episode 17 | power rangers o | bakedfish arslan senki 720p 18 | 2009 V Season 1 | school daze dvdrip | beadwork 2015 | 2011 ROMANCE | x265 groundhog day |